Rurouni Kenshin: The Legend Ends (2014)

Posted by on 0 comments
Rurouni Kenshin: The Legend Ends (Japanese: るろうに剣心 伝説の最期編 Hepburn: Rurouni Kenshin: Densetsu no Saigo-hen?) is a 2014 Japanese jidaigeki action film directed by Keishi Ōtomo and based on the manga series Rurouni Kenshin. The story follows two prior films, Rurouni Kenshin (2012) and Rurouni Kenshin: Kyoto Inferno (2014).

Plot
Shishio has set sail in his ironclad ship to bring down the Meiji government and return Japan to chaos, carrying Kaoru with him. In order to stop him in time, Kenshin trains with his old master to learn his final technique.



Duration : 2h 14mn
Overall bit rate : 2 156 Kbps
Encoded date : UTC 2015-01-09 11:46:50
Writing application : mkvmerge v5.8.0 ('No Sleep / Pillow') built on Sep 2 2012 15:37:04

VIDEO
ID : 1
Format : AVC
Format/Info : Advanced Video Codec
Format profile : Baseline@L3.1
Format settings, CABAC : No
Format settings, ReFrames : 1 frame
Muxing mode : Header stripping
Codec ID : V_MPEG4/ISO/AVC
Duration : 2h 14mn
Bit rate : 1 960 Kbps
Width : 1 280 pixels
Height : 532 pixels
Display aspect ratio : 2.40:1
Frame rate mode : Constant
Frame rate : 23.976 fps
Color space : YUV
Chroma subsampling : 4:2:0
Bit depth : 8 bits
Scan type : Progressive
Bits/(Pixel*Frame) : 0.120
Stream size : 1.80 GiB (89%)
Writing library : x264 core 125
Encoding settings : cabac=0 / ref=1 / deblock=1:0:0 / analyse=0x1:0x1 / me=dia / subme=1 / psy=1 / psy_rd=1.00:0.00 / mixed_ref=0 / me_range=16 / chroma_me=1 / trellis=0 / 8x8dct=0 / cqm=0 / deadzone=21,11 / fast_pskip=1 / chroma_qp_offset=0 / threads=3 / lookahead_threads=1 / sliced_threads=0 / nr=0 / decimate=1 / interlaced=0 / bluray_compat=0 / constrained_intra=0 / bframes=0 / weightp=0 / keyint=250 / keyint_min=23 / scenecut=40 / intra_refresh=0 / rc=abr / mbtree=0 / bitrate=1960 / ratetol=1.0 / qcomp=0.60 / qpmin=0 / qpmax=69 / qpstep=4 / ip_ratio=1.40 / aq=1:1.00
Default : Yes
Forced : No

AUDIO
ID : 2
Format : AC-3
Format/Info : Audio Coding 3
Mode extension : CM (complete main)
Format settings, Endianness : Big
Muxing mode : Header stripping
Codec ID : A_AC3
Duration : 2h 14mn
Bit rate mode : Constant
Bit rate : 192 Kbps
Channel(s) : 2 channels
Channel positions : Front: L R
Sampling rate : 48.0 KHz
Bit depth : 16 bits
Compression mode : Lossy
Delay relative to video : 25ms
Stream size : 185 MiB (9%)
Default : Yes
Forced : No


Rurouni Kenshin: The Legend Ends (1GiG)
http://goo.gl/pHO8rU

Download Subtitle
http://goo.gl/fsXDHu



Want to stream and download movies?

Newest Post:
Newer Post

Older Post:
Older Post

0 Comments for "Rurouni Kenshin: The Legend Ends (2014)"